Black or White 2015 CAM XviD AC3 MURD3R
3.259 vistas

  • Information
  • Trailer
Black or White 2015 CAM XviD AC3 MURD3R ()

Rating IMDb 6.9/10 - 181 votos

Original title Black or White

Duration 121 min

Release 30 Jan 2015

Origin USA

Languages English

Awards 1 win & 2 nominations.

genre CAM,drama,New Movies

PG-13 Sinopsis de Black or White 2015 CAM XviD AC3 MURD3R ()

A grieving widower is drawn into a custody battle over his granddaughter, whom he helped raise her entire life.

http://www.imdb.com/title/tt2883434/

 

General
Complete name : Black or White 2015 XviD AC3 MURD3R.avi
Format : AVI
Format/Info : Audio Video Interleave
File size : 1.45 GiB
Duration : 1h 57mn
Overall bit rate : 1 772 Kbps

Video
ID : 0
Format : xvid
Codec ID : xvid
Duration : 1h 57mn
Bit rate : 1 633 Kbps
Width : 640 pixels
Height : 318 pixels
Display aspect ratio : 2.013
Frame rate : 25.000 fps
Bits/(Pixel*Frame) : 0.321
Stream size : 1.34 GiB (92%)

Audio
ID : 1
Format : AC-3
Format/Info : Audio Coding 3
Mode extension : CM (complete main)
Format settings, Endianness : Big
Codec ID : 2000
Duration : 1h 57mn
Bit rate mode : Constant
Bit rate : 128 Kbps
Channel(s) : 2 channels
Channel positions : Front: L R
Sampling rate : 44.1 KHz
Bit depth : 16 bits
Compression mode : Lossy
Stream size : 107 MiB (7%)
Alignment : Aligned on interleaves
Interleave, duration : 35 ms (0.87 video frame)
image

image

image

image

image


estadisticas