2014 Mall 2014 BRRip x264 AC3-MiLLENiUM
5.762 vistas

  • Information
  • Trailer
Mall 2014 BRRip x264 AC3-MiLLENiUM (2014)

Rating IMDb 6.8/10 - 37 votos

Original title Mall

Duration N/A

Year

Release 18 Jun 2014

Origin USA

Languages N/A

Director

Script , , ,

Awards N/A

genre BDRip,drama

N/A Sinopsis de Mall 2014 BRRip x264 AC3-MiLLENiUM (2014)

General

Source……………: 720p.BluRay.X264-iNVANDRAREN [THANKS BRO]
Information……….: http://www.imdb.com/title/tt1925466/
Sample Included……: yes

General
Complete name                            : Mall 2014 BRRip x264 AC3-MiLLENiUM.mkv
Format                                   : Matroska
Format version                           : Version 2
File size                                : 1.10 GiB
Duration                                 : 1h 28mn
Overall bit rate mode                    : Variable
Overall bit rate                         : 1 786 Kbps
Encoded date                             : UTC 2014-08-05 18:51:44
Writing application                      : mkvmerge v7.1.0 (‘Good Love’) 32bit built on Jul 27 2014 12:59:18
Writing library                          : libebml v1.3.0 + libmatroska v1.4.1

Video
ID                                       : 1
Format                                   : AVC
Format/Info                              : Advanced Video Codec
Format profile                           : [email protected]
Format settings, CABAC                   : Yes
Format settings, ReFrames                : 3 frames
Codec ID                                 : V_MPEG4/ISO/AVC
Duration                                 : 1h 28mn
Bit rate mode                            : Variable
Bit rate                                 : 1 302 Kbps
Maximum bit rate                         : 40.0 Mbps
Width                                    : 720 pixels
Height                                   : 304 pixels
Display aspect ratio                     : 2.35:1
Frame rate mode                          : Constant
Frame rate                               : 23.976 fps
Color space                              : YUV
Chroma subsampling                       : 4:2:0
Bit depth                                : 8 bits
Scan type                                : Progressive
Bits/(Pixel*Frame)                       : 0.248
Stream size                              : 823 MiB (73%)
Writing library                          : x264 core 142 r2453 ea0ca51

Audio
ID                                       : 2
Format                                   : AC-3
Format/Info                              : Audio Coding 3
Mode extension                           : CM (complete main)
Format settings, Endianness              : Big
Codec ID                                 : A_AC3
Duration                                 : 1h 28mn
Bit rate mode                            : Constant
Bit rate                                 : 448 Kbps
Channel(s)                               : 6 channels
Channel positions                        : Front: L C R, Side: L R, LFE
Sampling rate                            : 48.0 KHz
Bit depth                                : 16 bits
Compression mode                         : Lossy
Stream size                              : 283 MiB (25%)
Language                                 : English
Default                                  : Yes
Forced                                   : No

Plot

The lives of five disaffected suburbanites come together at a shopping mall in the wake of one man’s shooting spree.

Screenshots

Click To Resize

 

Click To Resize

Click To Resize


Deja un comentario

estadisticas